[закрыть]

Регистрация на сайте

Если вы уже зарегистрированы, пожалуйста войдите на сайт!
Email:
Имя (ник):
Пароль:
Повторите пароль:
  
У меня устройство:
  
Защита от роботов:

Плохо видно


AllShare не видит некоторые видеофайлы

AllShare не видит некоторые видеофайлы. Файлы качались ночью через мюторрент. Клиент закрылся, но не выключил компьютер. Скачал 2 файла - папки файлов добавляет, файлы не видит. Позднее скачал ещё один файл - т.к. он был без папки его не дабовляет программа, причём в обзоре все файлы видны, но не добавляются, помогите чем можете. высылаю медиа инфо. 1. Общее Идентификатор : 1 (0x1) Полное имя : D:\Видео\Один в один. Сезон 01 (2013, Pop, Тв-шоу, HDTV) (MYDIMKA)\02 выпуск.ts Формат : MPEG-TS Формат/Информация : Advanced Video Codec Размер файла : 9,22 Гбайт Продолжительность : 2 ч. 28 м. Общий поток : 8876 Кбит/сек Видео Идентификатор : 2931 (0xB73) Идентификатор меню : 1 (0x1) Формат : AVC Формат/Информация : Advanced Video Codec Профиль формата : High@L4.0 Параметр CABAC формата : Да Параметр ReFrames формата : 3 кадры Идентификатор кодека : 27 Продолжительность : 2 ч. 28 м. Битрейт : 7856 Кбит/сек Ширина : 1920 пикс. Высота : 1080 пикс. Соотношение сторон : 16:9 Частота кадров : 25,000 кадр/сек Цветовое пространство : YUV Подвыборка цветности : 4:2:0 Битовая глубина : 8 бит Тип развёртки : MBAFF Бит/(Пиксели*Кадры) : 0.152 Размер потока : 8,16 Гбайт (89%) Аудио #1 Идентификатор : 2932 (0xB74) Идентификатор меню : 1 (0x1) Формат : MPEG Audio Версия формата : Version 1 Профиль формата : Layer 2 Идентификатор кодека : 3 Продолжительность : 2 ч. 28 м. Вид битрейта : Постоянный Битрейт : 192 Кбит/сек Канал(ы) : 2 канала(ов) Частота : 48,0 КГц Метод сжатия : С потерями Размер потока : 204 Мбайт (2%) Язык : Russian Аудио #2 Идентификатор : 2933 (0xB75) Идентификатор меню : 1 (0x1) Формат : AC-3 Формат/Информация : Audio Coding 3 Расширение режима : CM (complete main) Идентификатор кодека : 129 Продолжительность : 2 ч. 28 м. Вид битрейта : Постоянный Битрейт : 384 Кбит/сек Канал(ы) : 2 канала(ов) Расположение каналов : Front: L R Частота : 48,0 КГц Битовая глубина : 16 бит Метод сжатия : С потерями Размер потока : 409 Мбайт (4%) Язык : Russian 2. Общее Уникальный идентификатор : 174067791672787849033364644598850296377 (0x82F43CBB5751767A9C3D02653F409A39) Полное имя : D:\Видео\Большие танцы. Первый сезон (2013, Тв-шоу, HDTVRip 720) (MYDIMKA)\03 выпуск.mkv Формат : Matroska Размер файла : 3,46 Гбайт Продолжительность : 2 ч. 2 м. Общий поток : 4063 Кбит/сек Дата кодирования : UTC 2013-03-24 00:47:44 Программа кодирования : mkvmerge v2.4.0 ('Fumbling Towards Ecstasy') built on Oct 11 2008 20:13:15 Библиотека кодирования : libebml v0.7.7 + libmatroska v0.8.1 Видео Идентификатор : 1 Формат : AVC Формат/Информация : Advanced Video Codec Профиль формата : High@L4.1 Параметр CABAC формата : Да Параметр ReFrames формата : 3 кадры Идентификатор кодека : V_MPEG4/ISO/AVC Продолжительность : 2 ч. 2 м. Битрейт : 3850 Кбит/сек Ширина : 1280 пикс. Высота : 720 пикс. Соотношение сторон : 16:9 Частота кадров : 25,000 кадр/сек Цветовое пространство : YUV Подвыборка цветности : 4:2:0 Битовая глубина : 8 бит Тип развёртки : Прогрессивная Бит/(Пиксели*Кадры) : 0.167 Размер потока : 3,23 Гбайт (93%) Библиотека кодирования : x264 core 65 r999kMod cc51047 Настройки программы : cabac=1 / ref=3 / deblock=1:0:0 / analyse=0x3:0x133 / me=umh / subme=6 / psy_rd=1.0:0.0 / mixed_ref=1 / me_range=16 / chroma_me=1 / trellis=1 / 8x8dct=1 / cqm=0 / deadzone=21,11 / chroma_qp_offset=-2 / threads=8 / thread_queue=8 / nr=0 / decimate=1 / mbaff=0 / bframes=3 / b_pyramid=1 / b_adapt=1 / b_bias=0 / direct=1 / wpredb=1 / keyint=250 / keyint_min=25 / scenecut=40(pre) / rc=abr / bitrate=3850 / ratetol=1.0 / qcomp=0.60 / qpmin=10 / qpmax=51 / qpstep=4 / ip_ratio=1.40 / pb_ratio=1.30 / aq=1:1.00 Аудио Идентификатор : 2 Формат : MPEG Audio Версия формата : Version 1 Профиль формата : Layer 2 Идентификатор кодека : A_MPEG/L2 Идентификатор кодека/Подсказка : MP2 Продолжительность : 2 ч. 2 м. Вид битрейта : Постоянный Битрейт : 192 Кбит/сек Канал(ы) : 2 канала(ов) Частота : 48,0 КГц Метод сжатия : С потерями Размер потока : 168 Мбайт (5%) 3. Общее Уникальный идентификатор : 183424850225484783052686890537566157506 (0x89FE575638F3DBF983CF8794B2E53AC2) Полное имя : D:\Видео\Life of Pi [Жизнь Пи] (2012) DUB hSbS 1080p by Alexman.mkv Формат : Matroska Размер файла : 12,4 Гбайт Продолжительность : 2 ч. 6 м. Общий поток : 14,0 Мбит/сек Название фильма : Life of Pi [Жизнь Пи] Дата кодирования : UTC 2013-03-10 10:39:44 Программа кодирования : mkvmerge v6.1.0 ('Old Devil') built on Mar 2 2013 14:32:37 Библиотека кодирования : libebml v1.3.0 + libmatroska v1.4.0 Видео Идентификатор : 1 Формат : AVC Формат/Информация : Advanced Video Codec Профиль формата : High@L4.1 Параметр CABAC формата : Да Параметр ReFrames формата : 4 кадры Идентификатор кодека : V_MPEG4/ISO/AVC Продолжительность : 2 ч. 6 м. Битрейт : 12,0 Мбит/сек Ширина : 1920 пикс. Высота : 1080 пикс. Соотношение сторон : 16:9 Частота кадров : 23,976 кадр/сек Цветовое пространство : YUV Подвыборка цветности : 4:2:0 Битовая глубина : 8 бит Тип развёртки : Прогрессивная Бит/(Пиксели*Кадры) : 0.242 Размер потока : 10,7 Гбайт (86%) Заголовок : Life of Pi [Жизнь Пи] Библиотека кодирования : x264 core 129 r2245 bc13772 Настройки программы : cabac=1 / ref=4 / deblock=1:-3:-3 / analyse=0x3:0x113 / me=umh / subme=9 / psy=1 / psy_rd=1.00:0.15 / mixed_ref=1 / me_range=32 / chroma_me=1 / trellis=2 / 8x8dct=1 / cqm=0 / deadzone=21,11 / fast_pskip=1 / chroma_qp_offset=-3 / threads=6 / lookahead_threads=1 / sliced_threads=0 / nr=0 / decimate=1 / interlaced=0 / bluray_compat=0 / constrained_intra=0 / bframes=4 / b_pyramid=2 / b_adapt=2 / b_bias=0 / direct=3 / weightb=1 / open_gop=0 / weightp=2 / keyint=250 / keyint_min=23 / scenecut=40 / intra_refresh=0 / rc_lookahead=60 / rc=crf / mbtree=1 / crf=17.0 / qcomp=0.60 / qpmin=0 / qpmax=69 / qpstep=4 / vbv_maxrate=40000 / vbv_bufsize=40000 / crf_max=0.0 / nal_hrd=none / ip_ratio=1.40 / aq=1:0.70 Язык : English Аудио #1 Идентификатор : 2 Формат : AC-3 Формат/Информация : Audio Coding 3 Расширение режима : CM (complete main) Идентификатор кодека : A_AC3 Продолжительность : 2 ч. 6 м. Вид битрейта : Постоянный Битрейт : 640 Кбит/сек Канал(ы) : 6 канала(ов) Расположение каналов : Front: L C R, Side: L R, LFE Частота : 48,0 КГц Битовая глубина : 16 бит Метод сжатия : С потерями Размер потока : 581 Мбайт (5%) Заголовок : Русский дублированный Язык : Russian Аудио #2 Идентификатор : 3 Формат : AC-3 Формат/Информация : Audio Coding 3 Расширение режима : CM (complete main) Идентификатор кодека : A_AC3 Продолжительность : 2 ч. 6 м. Вид битрейта : Постоянный Битрейт : 448 Кбит/сек Канал(ы) : 6 канала(ов) Расположение каналов : Front: L C R, Side: L R, LFE Частота : 48,0 КГц Битовая глубина : 16 бит Метод сжатия : С потерями Размер потока : 407 Мбайт (3%) Заголовок : Украинский дублированный Язык : Ukrainian Аудио #3 Идентификатор : 7 Формат : AC-3 Формат/Информация : Audio Coding 3 Расширение режима : CM (complete main) Идентификатор кодека : A_AC3 Продолжительность : 2 ч. 6 м. Вид битрейта : Постоянный Битрейт : 640 Кбит/сек Канал(ы) : 6 канала(ов) Расположение каналов : Front: L C R, Side: L R, LFE Частота : 48,0 КГц Битовая глубина : 16 бит Метод сжатия : С потерями Размер потока : 581 Мбайт (5%) Заголовок : Original English Язык : English Текст #1 Идентификатор : 4 Формат : UTF-8 Идентификатор кодека : S_TEXT/UTF8 Идентификатор кодека/Информация : UTF-8 Plain Text Заголовок : Русские форсированные Язык : Russian Текст #2 Идентификатор : 5 Формат : UTF-8 Идентификатор кодека : S_TEXT/UTF8 Идентификатор кодека/Информация : UTF-8 Plain Text Заголовок : Русские полные Язык : Russian Текст #3 Идентификатор : 6 Формат : UTF-8 Идентификатор кодека : S_TEXT/UTF8 Идентификатор кодека/Информация : UTF-8 Plain Text Заголовок : Украинские полные Язык : Ukrainian ПОМОГИТЕ ЧЕМ МОЖЕТЕ! :*(



Знаю верный ответ Найти ответ на вопрос



Ключевые слова: samsung allshare не видит файлы, samsung allshare не видит новые файлы, allshare не видит файлы mkv,

2 ответа к вопросу “AllShare не видит некоторые видеофайлы”

  • ответ #0 / ответил: Служба поддержки

    • ответ #1 / ответил: Тимур
      Полезный ответ? Да (2) / Нет (0)

      Причём пришлось переустанавливать программу чтобы она увидела файлы, но не прошло и дня - новые скачанные файлы опять не видит! Вот не везуха и galaxy s2 тупит после обновления и это г**но не хочет работать, где справедливость? И вообще это официальная поддержка самсунг или что?

      Ответить

    • ответ #2 / ответил: Алексей
      Полезный ответ? Да (0) / Нет (0)

      Такая же хрень. Переустановка не помогает!!!


      Ответить

Ответить на вопрос


Прикрепить картинку...

Не хотите вводить проверочный код? Пройдите регистрацию!
Проверочный код:

обновить картинку

Копирайт

  • © 2010-2012. Все права принадлежат Samsung-Help 1995-2012.
  • Не нашли ответ? задай свой вопрос