[закрыть]

Регистрация на сайте

Если вы уже зарегистрированы, пожалуйста войдите на сайт!
Email:
Имя (ник):
Пароль:
Повторите пароль:
  
У меня устройство:
  
Защита от роботов:

Плохо видно


Чем сконвертировать видео для цифровика SAMSUNG ES65

Скачал AVC (Any Video Converter) выбрал профиль customized avi movie, видеокодек mjpeg, размер видео 640х480, качество высокое, закачал на цифровик - ошибка файла. Пробовал даже переименовать файл под формат фотика (префикс, цифры). Или обязательно нужно именно mjpg? Этого там нет. Пробовал MVC (magic video converter), там кодек MJPG вроде был - тоже не помогло.Запись видео и звукаЗапись видео естьФормат записи видео AVIВидеокодеки MJPEGp.s. страница с описанием SAMSUNG es65: http://market.yandex.ru/model-spec.xml?modelid=6030710&hid=91148http://www.samsung.com/ru/consumer/cameras-camcorders/cameras/compact-classic-cameras/EC-ES65ZZBPSRUДобавлено позже Вот что выдал mediainfo:Полное имя                               : 100PHOTOSAM_0772.AVIФормат                                   : AVIФормат/Информация                        : Audio Video InterleaveРазмер файла                             : 93,3 МбайтПродолжительность                        : 1 м. 33 с.Общий поток                              : 8363 Кбит/секВидеоИдентификатор                            : 0Формат                                   : JPEGИдентификатор кодека                     : MJPGПродолжительность                        : 1 м. 33 с.Битрейт                                  : 8097 Кбит/секШирина                                   : 640 пикселейВысота                                   : 480 пикселейВысота оригинала                         : 960 пикселейСоотношение сторон                       : 4:3Частота кадров                           : 30,000 кадров/секЦветовое пространство                    : YUVСубдискретизация насыщенности            : 4:2:2Битовая глубина                          : 8 битТип развёртки                            : ЧересстрочнаяМетод сжатия                             : С потерямиБит/(Пиксели*Кадры)                      : 0.879Размер потока                            : 90,4 Мбайт (97%)АудиоИдентификатор                            : 1Формат                                   : PCMПараметр Endianness формата              : LittleПараметр Sign формата                    : SignedИдентификатор кодека                     : 1Продолжительность                        : 1 м. 33 с.Вид битрейта                             : ПостоянныйБитрейт                                  : 352,8 Кбит/секКаналы                                   : 1 каналЧастота                                  : 22,05 КГцБитовая глубина                          : 16 битРазмер потока                            : 3,94 Мбайт (4%)Выравнивание                             : Соединение по промежуткамПродолжительность промежутка             : 33  мс. (1,00 видеокадр)



Знаю верный ответ Найти ответ на вопрос



Ключевые слова: прошивка для фотоаппарата samsung es65,

1 ответ к вопросу “Чем сконвертировать видео для цифровика SAMSUNG ES65”

  • ответ #0 / ответил: Служба поддержки

Ответить на вопрос


Прикрепить картинку...

Не хотите вводить проверочный код? Пройдите регистрацию!
Проверочный код:

обновить картинку

Копирайт

  • © 2010-2012. Все права принадлежат Samsung-Help 1995-2012.
  • Не нашли ответ? задай свой вопрос