[закрыть]

Регистрация на сайте

Если вы уже зарегистрированы, пожалуйста войдите на сайт!
Email:
Имя (ник):
Пароль:
Повторите пароль:
  
У меня устройство:
  
Защита от роботов:

Плохо видно


le-32b653 matroska дергается и зависает тел

При просмотре по DLNA видео останавливается и появляется вверху сообщение подготовка к воспроизведению. Если этот же фильм смотреть с внешнего винта то просто начинает дергаться, пропадает звук и не слушается кнопок, через некоторое время оживает, но потом опять повторяется.Просмотрели кучу фильмов такой фигни не было. Первый раз и именно с этим файлом.GeneralComplete name : D:Киноhdtv__________.x264.mkvFormat : MatroskaFile size : 13.5 GiBDuration : 1h 57mnOverall bit rate : 16.4 MbpsMovie name : Encoded date : UTC 2010-01-19 15:59:10Writing application : mkvmerge v3.0.0 ('Hang up your Hang-Ups') built on Dec 12 2009 15:20:35Writing library : libebml v0.7.9 + libmatroska v0.8.1VideoID : 1Format : AVCFormat/Info : Advanced Video CodecFormat profile : High@L4.1Format settings, CABAC : YesFormat settings, ReFrames : 5 framesMuxing mode : Container profile=Unknown@4.1Codec ID : V_MPEG4/ISO/AVCDuration : 1h 57mnBit rate : 15.7 MbpsNominal bit rate : 16.0 MbpsWidth : 1 920 pixelsHeight : 800 pixelsDisplay aspect ratio : 2.40:1Frame rate : 23.976 fpsResolution : 24 bitsColorimetry : 4:2:0Scan type : ProgressiveBits/(Pixel*Frame) : 0.425Stream size : 12.9 GiB (95%)Writing library : x264 core 68 r1184M 88b35c2Encoding settings : cabac=1 / ref=5 / deblock=1:-3:-3 / analyse=0x3:0x113 / me=umh / subme=9 / psy_rd=1.0:0.0 / mixed_ref=1 / me_range=32 / chroma_me=1 / trellis=2 / 8x8dct=1 / cqm=0 / deadzone=21,11 / chroma_qp_offset=-4 / threads=6 / nr=0 / decimate=1 / mbaff=0 / bframes=8 / b_pyramid=1 / b_adapt=2 / b_bias=0 / direct=1 / wpredb=1 / keyint=250 / keyint_min=25 / scenecut=40 / rc=2pass / bitrate=16000 / ratetol=1.0 / qcomp=0.60 / qpmin=10 / qpmax=51 / qpstep=4 / cplxblur=20.0 / qblur=0.5 / vbv_maxrate=50000 / vbv_bufsize=50000 / ip_ratio=1.40 / pb_ratio=1.30 / aq=1:1.00Language : EnglishAudioID : 2Format : AC-3Format/Info : Audio Coding 3Codec ID : A_AC3Duration : 1h 57mnBit rate mode : ConstantBit rate : 448 KbpsChannel(s) : 6 channelsChannel positions : Front: L C R, Surround: L R, LFESampling rate : 48.0 KHzStream size : 378 MiB (3%)Language : Russian



Знаю верный ответ Найти ответ на вопрос


4 ответа к вопросу “le-32b653 matroska дергается и зависает тел”

  • ответ #0 / ответил: Служба поддержки

    • ответ #1 / ответил: vitalik76
      Полезный ответ? Да (0) / Нет (0)

      А этот файл от остальных, где не было такой фигни, чем-нибудь принципиально отличается, ну там размером, битрейтов, форматом и т.д.?

      Ответить

    • ответ #2 / ответил: DrCash
      Полезный ответ? Да (0) / Нет (0)

      Да только наверно в том, что при 16Mb битрейте 13,5Гигов весит, а так все вроде обычный файл.

      Ответить

    • ответ #3 / ответил: vitalik76
      Полезный ответ? Да (0) / Нет (0)

      Стало быть надо приводить параметры этого файла к параметрам тех файлов, которые нормально просматриваются. Ну там делить на части, или битрейт уменьшать.

      Ответить

    • ответ #4 / ответил: DrCash
      Полезный ответ? Да (0) / Нет (0)

      Набрался терпения посмотреть фильм еще раз. Дошло до того же место и началось ... Сделал так, выключил телек с пульта, конечно не сразу он выключился в такой ситуации. Потом включил заново фильм, промотал до того места где начинался дуплеж и вот так я досмотрел фильм до конца нормально. Похоже на то что в потоке какие-то ошибки, и когда они накапливаются он начинает захлебываться

      Ответить

Ответить на вопрос


Прикрепить картинку...

Не хотите вводить проверочный код? Пройдите регистрацию!
Проверочный код:

обновить картинку

Копирайт

  • © 2010-2012. Все права принадлежат Samsung-Help 1995-2012.
  • Не нашли ответ? задай свой вопрос